The Lego Movie 2 The Second Part 2019 Movies HD Cam x264 Clean Audio New Source with Sample ☻rDX☻

seeders: 8 leechers: 2 updated: unknown
Added on by teamrDX 12,148 in Movies > Cam
Torrent verified. Downloaded 465 times.
Infohash 0277fd3a38d718ffa6ac7beb40677f2e91ac81af
0
0
Cover
The Lego Movie 2: The Second Part (2019) PG
Runtime

Video Other — Other — x264
Audio English

Directed by Mike Mitchell, Trisha Gum(co-director)
Written by Michelle Morgan (story), Dominic Russo (story), Phil Lord (screenplay), Christopher Miller (screenplay), Matthew Fogel (screenplay), Raphael Bob-Waksberg (screenplay)

Genres Animation, Action, Adventure, Comedy, Family, Fantasy, Musical

It's been five years since everything was awesome and the citizens are facing a huge new threat: LEGO DUPLO® invaders from outer space, wrecking everything faster than they can rebuild.

Also available as: x264

Description

Content temp disabled. The Lego Movie 2 The Second Part 2019 Movies HD Cam x264 Clean Audio New Source with Sample ☻rDX☻

Screen Shots

http://iphonehosting.eu/2018/12/advocate/1.html
http://iphonehosting.eu/2018/12/advocate/2.html
http://iphonehosting.eu/2018/12/advocate/3.html
http://iphonehosting.eu/2018/12/advocate/4.html
http://iphonehosting.eu/2018/12/advocate/5.html


File size                                : 702 MiB
Duration                                 : 1 h 34 min
Overall bit rate                         : 1 039 kb/s
Movie name                               : The Lego Movie 2 The Second Part 2019 Movies HD Cam x264 Clean Audio New Source ☻rDX☻

Video
ID                                       : 2
Format                                   : AVC
Format/Info                              : Advanced Video Codec
Format profile                           : Main@L3
Format settings, CABAC                   : Yes
Format settings, ReFrames                : 2 frames
Codec ID                                 : V_MPEG4/ISO/AVC
Duration                                 : 1 h 34 min
Bit rate                                 : 954 kb/s
Width                                    : 700 pixels
Height                                   : 294 pixels
Display aspect ratio                     : 2.40:1
Frame rate mode                          : Constant
Frame rate                               : 29.970 (30000/1001) FPS
Color space                              : YUV
Chroma subsampling                       : 4:2:0
Bit depth                                : 8 bits
Scan type                                : Progressive
Bits/(Pixel*Frame)                       : 0.155
Stream size                              : 645 MiB (92%)
Title                                    : ☻rDX☻
Default                                  : Yes
Forced                                   : No

Audio
ID                                       : 1
Format                                   : AC-3
Format/Info                              : Audio Coding 3
Mode extension                           : CM (complete main)
Format settings, Endianness              : Big
Codec ID                                 : A_AC3
Duration                                 : 1 h 34 min
Bit rate mode                            : Constant
Bit rate                                 : 64.0 kb/s
Channel(s)                               : 2 channels
Channel positions                        : Front: L R
Sampling rate                            : 44.1 kHz
Frame rate                               : 28.711 FPS (1536 spf)
Bit depth                                : 16 bits
Compression mode                         : Lossy
Stream size                              : 43.3 MiB (6%)
Title                                    : ☻rDX☻
Default                                  : Yes
Forced                                   : No

http://www.imdb.com/title/tt3513498/

Content temp disabled.

Sharing Widget

To share this torrent inserting the provided BBCode into comments, status messages, forum posts or your signature.